Tears Of The Sun 2003 1080p BluRay x264-iKA

Discussion in 'Movies' started by overeem, Sep 14, 2018.

  1. overeem

    overeem Well-Known Member

    Joined:
    Dec 23, 2017
    Messages:
    8,127
    Likes Received:
    0
    Gender:
    Male
    [​IMG]

    Genre Action, Drama, Thriller
    Actors Bruce Willis, Monica Bellucci, Cole Hauser, Eamonn Walker, Johnny Messner, Nick Chinlund, Charles Ingram, Paul Francis, Chad Smith, Tom Skerritt, Malick Bowens, Awaovieyi Agie, Akosua Busia, Hadar Busia-Singleton, Ida Onyango
    Plot A Special-Ops commander leads his team into the Nigerian jungle in order to rescue a doctor who will only join them if they agree to save 70 refugees too.

    Code:
    http://www.imdb.com/title/tt0314353/
    Code:
    Format                                   : Matroska
    Format version                           : Version 1
    File size                                : 10.9 GiB
    Duration                                 : 2h 0mn
    Overall bit rate                         : 13.0 Mbps
    Encoded date                             : UTC 2008-10-20 13:58:12
    Writing application                      : mkvmerge v2.3.0 ('Freak U') built on Sep  8 2008 18:32:16
    Writing library                          : libebml v0.7.7 + libmatroska v0.8.1
    
    Video
    ID                                       : 1
    Format                                   : AVC
    Format/Info                              : Advanced Video Codec
    Format profile                           : [email protected]
    Format settings, CABAC                   : Yes
    Format settings, ReFrames                : 5 frames
    Codec ID                                 : V_MPEG4/ISO/AVC
    Duration                                 : 2h 0mn
    Bit rate                                 : 11.4 Mbps
    Width                                    : 1 920 pixels
    Height                                   : 800 pixels
    Display aspect ratio                     : 2.40:1
    Frame rate mode                          : Constant
    Frame rate                               : 23.976 fps
    Color space                              : YUV
    Chroma subsampling                       : 4:2:0
    Bit depth                                : 8 bits
    Scan type                                : Progressive
    Bits/(Pixel*Frame)                       : 0.311
    Stream size                              : 9.45 GiB (86%)
    Writing library                          : x264 core 65 r999M cc51047
    Encoding settings                        : cabac=1 / ref=5 / deblock=1:0:0 / analyse=0x3:0x133 / me=umh / subme=7 / psy_rd=1.0:0.0 / mixed_ref=1 / me_range=16 / chroma_me=1 / trellis=1 / 8x8dct=1 / cqm=2 / deadzone=21,11 / chroma_qp_offset=-2 / threads=3 / nr=0 / decimate=1 / mbaff=0 / bframes=3 / b_pyramid=1 / b_adapt=1 / b_bias=0 / direct=1 / wpredb=1 / keyint=250 / keyint_min=25 / scenecut=40(pre) / rc=2pass / bitrate=11436 / ratetol=1.0 / qcomp=0.60 / qpmin=10 / qpmax=51 / qpstep=4 / cplxblur=20.0 / qblur=0.5 / ip_ratio=1.40 / pb_ratio=1.30 / aq=1:1.00
    Language                                 : English
    Default                                  : Yes
    Forced                                   : No
    
    Audio
    ID                                       : 2
    Format                                   : DTS
    Format/Info                              : Digital Theater Systems
    Mode                                     : 16
    Format settings, Endianness              : Big
    Codec ID                                 : A_DTS
    Duration                                 : 2h 0mn
    Bit rate mode                            : Constant
    Bit rate                                 : 1 510 Kbps
    Channel(s)                               : 6 channels
    Channel positions                        : Front: L C R, Side: L R, LFE
    Sampling rate                            : 48.0 KHz
    Frame rate                               : 93.750 fps (512 spf)
    Bit depth                                : 24 bits
    Compression mode                         : Lossy
    Stream size                              : 1.28 GiB (12%)
    Language                                 : English
    Default                                  : Yes
    Forced                                   : No
    Code:
    http://rapidgator.net/file/83fb589a273a88d674fd1a39f5969809/Tears.Of.The.Sun.2003.1080p.BluRay.x264-iKA.part1.rar.html
    http://rapidgator.net/file/493e6ba01b75e69ef9b251beff351b84/Tears.Of.The.Sun.2003.1080p.BluRay.x264-iKA.part2.rar.html
    http://rapidgator.net/file/02100bbcc233c869b737cb98fbb4dca2/Tears.Of.The.Sun.2003.1080p.BluRay.x264-iKA.part3.rar.html
    http://rapidgator.net/file/79543816032ee8b11aaffd442a11c8a5/Tears.Of.The.Sun.2003.1080p.BluRay.x264-iKA.part4.rar.html
    http://rapidgator.net/file/49217381dc5e04fc368aabe3ae2333c1/Tears.Of.The.Sun.2003.1080p.BluRay.x264-iKA.part5.rar.html
    http://rapidgator.net/file/f5519d128ee4c51c0198ee3748db6f5b/Tears.Of.The.Sun.2003.1080p.BluRay.x264-iKA.part6.rar.html